Ant-Man.and.the.Wasp.2018.720p.IMAX.BluRay.English.AC3.Esubs-Kart...

  • Category Movies
  • Type HD
  • Language English
  • Total size 1.6 GB
  • Uploaded By ImKing
  • Downloads 263
  • Last checked 3 days ago
  • Date uploaded 1 week ago
  • Seeders 32
  • Leechers 13

Ant-Man and the Wasp

ActionAdventureFantasyComedyScience Fiction

As Scott Lang balances being both a superhero and a father, Hope van Dyne and Dr. Hank Pym present an urgent new mission that finds the Ant-Man fighting alongside the Wasp to uncover secrets from their past.

Infohash : 272E4C6718D70FAF66A226E80D53F84902CF11BB

Ant-Man.and.the.Wasp.2018.720p.IMAX.BluRay.English.AC3.Esubs-KartiKing [EXCLUSIVE] 1.6GB





INFO :-

Visit & Support www.moviezaddiction.website

IMAX EDITION
Cropped annoying black bar on the left, upto the extent that video is not distorted.
2 Pass Enhanced Encoding.
AC3 DD5.1 384kbps English Audio
Contains Both PGS & Srt English Subtitles.
Enjoy The Quality!

Source: Ant-Man and the Wasp 2018 3D 1080p BluRay AVC DTS-HD MA 7.1-Highvoltage 37.28GB

Mediainfo :-

https://nfomation.net/download/1539935663/antman_720p.txt

Genera
Format                                   : Matroska
Format version                           : Version 4
File size                                : 1.61 GiB
Duration                                 : 1 h 58 min
Overall bit rate                         : 1 947 kb/s

Video
ID                                       : 1
Format                                   : AVC
Format/Info                              : Advanced Video Codec
Format profile                           : [email protected]
Format settings                          : CABAC / 9 Ref Frames
Format settings, CABAC                   : Yes
Format settings, RefFrames               : 9 frames
Codec ID                                 : V_MPEG4/ISO/AVC
Duration                                 : 1 h 58 min
Bit rate                                 : 1 550 kb/s
Width                                    : 1 280 pixels
Height                                   : 720 pixels
Display aspect ratio                     : 16:9
Frame rate mode                          : Constant
Frame rate                               : 23.976 (24000/1001) FPS
Color space                              : YUV
Chroma subsampling                       : 4:2:0
Bit depth                                : 8 bits
Scan type                                : Progressive
Bits/(Pixel*Frame)                       : 0.070
Stream size                              : 1.28 GiB (80%)

Audio
ID                                       : 2
Format                                   : AC-3
Format/Info                              : Audio Coding 3
Commercial name                          : Dolby Digital
Codec ID                                 : A_AC3
Duration                                 : 1 h 58 min
Bit rate mode                            : Constant
Bit rate                                 : 384 kb/s
Channel(s)                               : 6 channels
Channel layout                           : L R C LFE Ls Rs
Sampling rate                            : 48.0 kHz
Frame rate                               : 31.250 FPS (1536 SPF)
Bit depth                                : 16 bits
Compression mode                         : Lossy
Stream size                              : 324 MiB (20%)
Language                                 : English
Service kind                             : Complete Main
Default                                  : Yes
Forced                                   : Yes

Text #1
ID                                       : 3
Format                                   : PGS
Muxing mode                              : zlib
Codec ID                                 : S_HDMV/PGS
Codec ID/Info                            : Picture based subtitle format used on BDs/HD-DVDs
Duration                                 : 1 h 50 min
Bit rate                                 : 40.8 kb/s
Count of elements                        : 3482
Stream size                              : 32.4 MiB (2%)
Language                                 : English
Default                                  : No
Forced                                   : No

Text #2
ID                                       : 4
Format                                   : UTF-8
Codec ID                                 : S_TEXT/UTF8
Codec ID/Info                            : UTF-8 Plain Text
Duration                                 : 1 h 51 min
Bit rate                                 : 66 b/s
Count of elements                        : 1932
Stream size                              : 53.7 KiB (0%)
Language                                 : English
Default                                  : No
Forced                                   : No

Menu
00:00:00.000                             : :Chapter 1
00:04:03.243                             : :Chapter 2
00:10:16.616                             : :Chapter 3
00:13:40.153                             : :Chapter 4
00:21:25.618                             : :Chapter 5
00:29:08.080                             : :Chapter 6
00:36:09.167                             : :Chapter 7
00:40:56.788                             : :Chapter 8
00:50:17.681                             : :Chapter 9
00:58:59.202                             : :Chapter 10
01:04:56.559                             : :Chapter 11
01:12:54.370                             : :Chapter 12
01:18:32.374                             : :Chapter 13
01:24:45.080                             : :Chapter 14
01:29:47.382                             : :Chapter 15
01:36:16.437                             : :Chapter 16
01:43:35.543                             : :Chapter 17
01:47:00.080                             : :Chapter 18



SCREENSHOTS :-















KartiKing




Files:

  • Ant-Man.and.the.Wasp.2018.720p.IMAX.BluRay.English.AC3.Esubs-KartiKing.mkv (1.6 GB)

Comments

Code:

  • udp://tracker.coppersurfer.tk:6969/announce
  • udp://tracker.internetwarriors.net:1337/announce
  • udp://tracker.opentrackr.org:1337/announce
  • udp://9.rarbg.to:2710/announce
  • udp://exodus.desync.com:6969/announce
  • udp://explodie.org:6969/announce
  • udp://tracker.vanitycore.co:6969/announce
  • udp://public.popcorn-tracker.org:6969/announce
  • udp://mgtracker.org:6969/announce
  • udp://tracker1.itzmx.com:8080/announce
/08/e7/ff/08e7ffd6a1ad8052c7c702273b643766.js'>