The Darkest Minds 2018 720p BRRip x264 ESub [MW]

  • Category Movies
  • Type HD
  • Language English
  • Total size 906.6 MB
  • Uploaded By moviezworldz
  • Downloads 131
  • Last checked 18 minutes ago
  • Date uploaded 3 days ago
  • Seeders 14
  • Leechers 7

The Darkest Minds

Science FictionThriller

After a disease kills 98% of America's children, the surviving 2% develop superpowers and are placed in internment camps. A 16-year-old girl escapes her camp and joins a group of other teens on the run from the government.

Infohash : DC78012DE26696606FB8281DF1918AF62AFA7637





General
Format : Matroska
Format version : Version 4 / Version 2
File size : 907 MiB
Duration : 1 h 43 min
Overall bit rate : 1 221 kb/s

Video
ID : 1
Format : AVC
Format/Info : Advanced Video Codec
Format profile : [email protected]
Format settings : CABAC / 4 Ref Frames
Format settings, CABAC : Yes
Format settings, RefFrames : 4 frames
Codec ID : V_MPEG4/ISO/AVC
Duration : 1 h 43 min
Bit rate : 1 100 kb/s
Width : 1 280 pixels
Height : 536 pixels
Display aspect ratio : 2.40:1
Frame rate mode : Constant
Frame rate : 23.976 (24000/1001) FPS
Color space : YUV
Chroma subsampling : 4:2:0
Bit depth : 8 bits
Scan type : Progressive
Bits/(Pixel*Frame) : 0.067
Stream size : 811 MiB (89%)
Writing library : x264 core 155 r2901 7d0ff22
Default : Yes
Forced : No

Audio
ID : 2
Format : AAC
Format/Info : Advanced Audio Codec
Format profile : HE-AAC / LC
Format settings : Explicit
Codec ID : A_AAC-2
Duration : 1 h 43 min
Bit rate : 127 kb/s
Channel(s) : 2 channels
Channel positions : Front: L R
Sampling rate : 48.0 kHz / 24.0 kHz
Frame rate : 23.438 FPS (1024 SPF)
Compression mode : Lossy
Stream size : 94.1 MiB (10%)
Language : English
Default : Yes
Forced : No

Text
ID : 3
Format : UTF-8
Codec ID : S_TEXT/UTF8
Codec ID/Info : UTF-8 Plain Text
Duration : 1 h 36 min
Bit rate : 52 b/s
Count of elements : 1374
Stream size : 37.2 KiB (0%)
Language : English
Default : Yes
Forced : No


Click To Enlarge Image








Files:

The Darkest Minds 2018 720p BRRip x264 ESub [MW]
  • The Darkest Minds 2018 720p BRRip x264 ESub [MW].mkv (906.6 MB)

There are currently no comments. Feel free to leave one :)

Code:

  • udp://tracker.coppersurfer.tk:6969/announce
  • udp://tracker.pirateparty.gr:6969/announce
  • udp://tracker.coppersurfer.tk:6969/announce
  • udp://tracker.tiny-vps.com:6969/announce
  • udp://9.rarbg.me:2740/announce
  • udp://9.rarbg.to:2790/announce
  • udp://public.popcorn-tracker.org:6969/announce
  • udp://tracker.vanitycore.co:6969/announce
  • udp://tracker.opentrackr.org:1337/announce
  • udp://open.stealth.si:80/announce
/08/e7/ff/08e7ffd6a1ad8052c7c702273b643766.js'>