The Brood (1979) Criterion + Extras (1080p BluRay x265 HEVC 10bit...

  • Category Movies
  • Type HEVC/x265
  • Language English
  • Total size 8.3 GB
  • Uploaded By QxR
  • Downloads 454
  • Last checked 2 weeks ago
  • Date uploaded 2 weeks ago
  • Seeders 17
  • Leechers 15

The Brood

HorrorScience FictionThriller

A man tries to uncover an unconventional psychologist's therapy techniques on his institutionalized wife, while a series of brutal attacks committed by a brood of mutant children coincides with the husband's investigation.

Infohash : FCEFD72E19ABB3A8DE55FD84604367A6661A652F



Note from Encoder:

Encoded with 2-Pass at 5,000 kb/s, includes English subtitles and extras. One of the extras included on the disc is an early film by David Cronenberg “Crimes of the Future” and unfortunately the bitrate for that file came out at over 8,500 kb/s. I will not be taking the time to do a proper 2-Pass encode on that extra, I included it only for the completeness of this release and frankly I don’t recommend even watching it unless you’re into slow student arthouse films.





Media Information

Code:

General
Format : Matroska
Format version : Version 4 / Version 2
File size : 3.29 GiB
Duration : 1 h 32 min
Overall bit rate : 5 090 kb/s
Movie name : The.Brood.1979-Criterion-Collection-Untouched-US-BD50-
Encoded date : UTC 2018-10-17 14:43:21
Writing application : mkvmerge v27.0.0 ('Metropolis') 64-bit
Writing library : libebml v1.3.6 + libmatroska v1.4.9
Cover : Yes
Attachments : cover.jpg
Writing frontend : StaxRip v1.7.0.6

Video
ID : 1
Format : HEVC
Format/Info : High Efficiency Video Coding
Format profile : Main [email protected]@Main
Codec ID : V_MPEGH/ISO/HEVC
Duration : 1 h 32 min
Bit rate : 5 000 kb/s
Width : 1 920 pixels
Height : 1 080 pixels
Display aspect ratio : 16:9
Frame rate mode : Constant
Frame rate : 23.976 (24000/1001) FPS
Color space : YUV
Chroma subsampling : 4:2:0
Bit depth : 10 bits
Bits/(Pixel*Frame) : 0.101
Stream size : 3.23 GiB (98%)
Title : Encoded by r00t
Writing library : x265 2.9+2-7e978ed93d60:[Windows][MSVC 1915][64 bit] 10bit
Encoding settings : cpuid=1111039 / frame-threads=2 / numa-pools=4 / wpp / no-pmode / no-pme / no-psnr / no-ssim / log-level=2 / input-csp=1 / input-res=1920x1080 / interlace=0 / total-frames=133056 / level-idc=0 / high-tier=1 / uhd-bd=0 / ref=4 / no-allow-non-conformance / no-repeat-headers / annexb / no-aud / no-hrd / info / hash=0 / no-temporal-layers / open-gop / min-keyint=23 / keyint=250 / gop-lookahead=0 / bframes=4 / b-adapt=2 / b-pyramid / bframe-bias=0 / rc-lookahead=25 / lookahead-slices=4 / scenecut=40 / radl=0 / no-intra-refresh / ctu=64 / min-cu-size=8 / no-rect / no-amp / max-tu-size=32 / tu-inter-depth=1 / tu-intra-depth=1 / limit-tu=0 / rdoq-level=2 / dynamic-rd=0.00 / no-ssim-rd / signhide / no-tskip / nr-intra=0 / nr-inter=0 / no-constrained-intra / no-strong-intra-smoothing / max-merge=3 / limit-refs=3 / limit-modes / me=3 / subme=3 / merange=57 / temporal-mvp / weightp / no-weightb / no-analyze-src-pics / deblock=0:0 / no-sao / no-sao-non-deblock / rd=4 / no-early-skip / no-rskip / no-fast-intra / no-tskip-fast / no-cu-lossless / no-b-intra / no-splitrd-skip / rdpenalty=0 / psy-rd=2.00 / psy-rdoq=1.00 / no-rd-refine / no-lossless / cbqpoffs=0 / crqpoffs=0 / rc=abr / bitrate=5000 / qcomp=0.60 / qpstep=4 / stats-write=0 / stats-read=2 / cplxblur=20.0 / qblur=0.5 / ipratio=1.40 / pbratio=1.30 / aq-mode=3 / aq-strength=1.00 / cutree / zone-count=0 / no-strict-cbr / qg-size=32 / no-rc-grain / qpmax=69 / qpmin=0 / no-const-vbv / sar=0 / overscan=0 / videoformat=5 / range=0 / colorprim=2 / transfer=2 / colormatrix=2 / chromaloc=0 / display-window=0 / max-cll=0,0 / min-luma=0 / max-luma=1023 / log2-max-poc-lsb=8 / vui-timing-info / vui-hrd-info / slices=1 / no-opt-qp-pps / no-opt-ref-list-length-pps / no-multi-pass-opt-rps / scenecut-bias=0.05 / no-opt-cu-delta-qp / no-aq-motion / no-hdr / no-hdr-opt / no-dhdr10-opt / no-idr-recovery-sei / analysis-reuse-level=5 / scale-factor=0 / refine-intra=0 / refine-inter=0 / refine-mv=0 / no-limit-sao / ctu-info=0 / no-lowpass-dct / refine-mv-type=0 / copy-pic=1 / max-ausize-factor=1.0 / no-dynamic-refine / no-single-sei
Default : Yes
Forced : No

Audio
ID : 2
Format : AAC
Format/Info : Advanced Audio Codec
Format profile : LC
Codec ID : A_AAC
Duration : 1 h 32 min
Bit rate : 79.8 kb/s
Channel(s) : 1 channel
Channel positions : Front: C
Sampling rate : 48.0 kHz
Frame rate : 46.875 FPS (1024 spf)
Compression mode : Lossy
Delay relative to video : 20 ms
Stream size : 52.8 MiB (2%)
Language : English
Default : Yes
Forced : No

Subtitle
ID : 3
Format : PGS
Muxing mode : zlib
Codec ID : S_HDMV/PGS
Codec ID/Info : Picture based subtitle format used on BDs/HD-DVDs
Duration : 1 h 28 min
Bit rate : 46.0 kb/s
Count of elements : 2172
Stream size : 29.1 MiB (1%)
Language : English
Default : No
Forced : No

Menu
00:00:00.000 : en:Chapter 01
00:07:12.140 : en:Chapter 02
00:13:05.451 : en:Chapter 03
00:21:08.141 : en:Chapter 04
00:30:04.010 : en:Chapter 05
00:39:44.673 : en:Chapter 06
00:49:53.240 : en:Chapter 07
00:57:35.201 : en:Chapter 08
01:03:29.722 : en:Chapter 09
01:09:52.980 : en:Chapter 10
01:18:24.991 : en:Chapter 11
01:31:04.167 : en:Chapter 12

Source Information

Code:

Release:
The.Brood.1979-Criterion-Collection-Untouched-US-BD50- (42.97 GB)


Note From QxR:

Quote:

Whilst we are happy for our releases to be re-posted on a platform we aren't on, please do so in an 'as-is' format. We ask that you do not create a new torrent, include all descriptions you see above including the QxR logo, tags, notes and screenshots. If you'd like to become a permanent poster on a website we don't post to, feel free to get in contact with a QxR member.


Files:

The Brood (1979) Criterion + Extras (1080p BluRay x265 HEVC 10bit AAC 1.0 r00t) Featurettes
  • Appearance by Actor Oliver Reed on The Merv Griffin Show (1980).mkv (234.0 MB)
  • Birth Pains - Documentary.mkv (400.1 MB)
  • Crimes of the Future (1970) - Early Film Directed by David Cronenberg.mkv (3.8 GB)
  • David Cronenberg - The Early Years.mkv (115.0 MB)
  • Meet The Carveths - Interview with Actors Art Hindle and Cindy Hinds.mkv (493.4 MB)
  • Radio spot.mkv (2.5 MB)
  • The Brood (1979) Criterion (1080p BluRay x265 r00t).mkv (3.3 GB)

Comments

Code:

  • udp://tracker.coppersurfer.tk:6969/announce
  • udp://tracker.opentrackr.org:1337/announce
  • udp://tracker.zer0day.to:1337/announce
  • udp://tracker.torrent.eu.org:451/announce
  • udp://tracker.leechers-paradise.org:6969/announce
  • udp://p4p.arenabg.com:1337/announce
  • udp://tracker.internetwarriors.net:1337/announce
/08/e7/ff/08e7ffd6a1ad8052c7c702273b643766.js'>