The Night Comes For Us 2018 Movies HDRip x264 AAC ESubs with Samp...

  • Category Movies
  • Type HD
  • Language English
  • Total size 705.2 MB
  • Uploaded By nehalpuja
  • Downloads 283
  • Last checked 20 minutes ago
  • Date uploaded 3 days ago
  • Seeders 13
  • Leechers 14

Infohash : 0B6005755A3D8FE100572D2BA84CBF4AE17DA280

The Night Comes For Us 2018 Movies HDRip x264 AAC ESubs with Sample ☻rDX☻
===============================================================================================

SCREEN SHOTS:



or

https://iphonehosting.eu/2018/10/interest/1.html

File size : 699 MiB
Duration : 2 h 0 min
Overall bit rate : 809 kb/s
Movie name : The Night Comes For Us 2018 Movies HDRip x264 AAC ESubs ☻rDX☻

Video
ID : 2
Format : AVC
Format/Info : Advanced Video Codec
Format profile : [email protected]
Format settings, CABAC : Yes
Format settings, ReFrames : 2 frames
Format settings, GOP : M=1, N=12
Codec ID : V_MPEG4/ISO/AVC
Duration : 2 h 0 min
Bit rate mode : Constant
Bit rate : 746 kb/s
Width : 720 pixels
Height : 304 pixels
Display aspect ratio : 2.35:1
Frame rate mode : Constant
Frame rate : 23.976 FPS
Color space : YUV
Chroma subsampling : 4:2:0
Bit depth : 8 bits
Scan type : Progressive
Bits/(Pixel*Frame) : 0.142
Stream size : 630 MiB (90%)
Title : ☻rDX☻
Default : Yes
Forced : No

Audio
ID : 1
Format : MPEG Audio
Format version : Version 1
Format profile : Layer 3
Mode : Joint stereo
Mode extension : MS Stereo
Codec ID : A_MPEG/L3
Codec ID/Hint : MP3
Duration : 2 h 0 min
Bit rate mode : Constant
Bit rate : 64.0 kb/s
Channel(s) : 2 channels
Sampling rate : 44.1 kHz
Compression mode : Lossy
Stream size : 55.3 MiB (8%)
Title : ☻rDX☻
Default : Yes
Forced : No

Text
ID : 3
Format : UTF-8
Codec ID : S_TEXT/UTF8
Codec ID/Info : UTF-8 Plain Text
Title : ☻rDX☻
Default : Yes
Forced : No

https://www.imdb.com/title/tt6116856

Files:

The Night Comes For Us 2018 Movies HDRip x264 AAC ESubs with Sample ☻rDX☻
  • Sample ~ The Night Comes For Us 2018 Movies HDRip x264 AAC ESubs ☻rDX☻.mkv (6.0 MB)
  • The Night Comes For Us 2018 Movies HDRip x264 AAC ESubs ☻rDX☻.mkv (699.1 MB)

There are currently no comments. Feel free to leave one :)

Code:

  • udp://tracker.coppersurfer.tk:6969/announce
  • udp://tracker.leechers-paradise.org:6969/announce
  • udp://tracker.pirateparty.gr:6969/announce
  • udp://eddie4.nl:6969/announce
  • udp://tracker.zer0day.to:1337/announce
  • udp://9.rarbg.me:2710/announce
  • udp://9.rarbg.to:2710/announce
  • udp://public.popcorn-tracker.org:6969/announce
  • udp://p4p.arenabg.ch:1337/announce
  • udp://tracker.vanitycore.co:6969/announce
  • udp://ipv4.tracker.harry.lu:80/announce
  • udp://tracker.opentrackr.org:1337/announce
  • udp://p4p.arenabg.com:1337/announce
  • udp://shadowshq.yi.org:6969/announce
/08/e7/ff/08e7ffd6a1ad8052c7c702273b643766.js'>