Wonders of the Sea - Le meraviglie del mare (2017).720p.H264.ital...

  • Category Documentaries
  • Type Documentary
  • Language English
  • Total size 1.6 GB
  • Uploaded By robbyrs
  • Downloads 261
  • Last checked 1 week ago
  • Date uploaded 1 week ago
  • Seeders 48
  • Leechers 7

Infohash : BD245F17DF076A4C3169D90CCB29A607BD330721

Wonders of the Sea - Le meraviglie del mare (2017).720p.H264.italian.english.Ac3-5.1.sub.ita-MIRCrew


NO FOUND ONLY ORIGINAL RELEASE



My release is always in double track audio italian and Original audio
for select it use VLC or dvd player home
not use wmp

Le meraviglie del mare - Wonders of the Sea (2017)

Quality MIRCrew on HD 720p da 1,6 gb







GENERE: Documentario
ANNO: 2017
REGIA: Jean-Michel Cousteau, Jean-Jacques Mantello
ATTORI: Arnold Schwarzenegger
PAESE: Gran Bretagna, Francia
DURATA: 85 Min



******************



Figlio del leggendario esploratore e cineasta Jacques Cousteau, con il film Le Meraviglie del Mare il regista Jean-Michel decide di imbarcarsi con i figli Celine e Fabien e la sua troupe in un viaggio meraviglioso.



Narrated by producer Arnold Schwarzenegger, in concert with Cousteau père and occasionally fils and fille, the voiceover script, with its unashamedly message-based PSA-style agenda, might be more suited to a hi-tech schoolroom outfitted with 3D projection facilities (presumably such innovations are not far off) than the multiplex.










General
Unique ID : 283590796284268822365854651256103661780 (0xD55999C44E765E80086E04B97A3A70D4)
Complete name : Le meraviglie del mare - Wonders of the Sea (2017).720p.h264.ita.eng.sub.ita-MIRCrew\Le meraviglie del mare - Wonders of the Sea (2017).720p.h264.ita.eng.sub.ita-MIRCrew.mkv
Format : Matroska
Format version : Version 2
File size : 1.57 GiB
Duration : 1h 24mn
Overall bit rate : 2 669 Kbps
Movie name : MIRCrew
Encoded date : UTC 2018-10-04 20:26:58
Writing application : Lavf54.63.100
Writing library : Lavf54.63.100

Video
ID : 1
Format : AVC
Format/Info : Advanced Video Codec
Format profile : [email protected]
Format settings, CABAC : Yes
Format settings, ReFrames : 2 frames
Codec ID : V_MPEG4/ISO/AVC
Duration : 1h 24mn
Bit rate : 1 900 Kbps
Width : 1 280 pixels
Height : 544 pixels
Display aspect ratio : 2.40:1
Original display aspect ratio : 2.40:1
Frame rate mode : Variable
Frame rate : 23.976 fps
Color space : YUV
Chroma subsampling : 4:2:0
Bit depth : 8 bits
Scan type : Progressive
Bits/(Pixel*Frame) : 0.114
Stream size : 1.09 GiB (69%)
Writing library : x264 core 130 r2273
Encoding settings : cabac=1 / ref=2 / deblock=1:0:0 / analyse=0x1:0x131 / me=hex / subme=7 / psy=1 / psy_rd=1.00:0.00 / mixed_ref=0 / me_range=16 / chroma_me=1 / trellis=1 / 8x8dct=0 / cqm=0 / deadzone=21,11 / fast_pskip=1 / chroma_qp_offset=-2 / threads=6 / lookahead_threads=1 / sliced_threads=0 / nr=0 / decimate=1 / interlaced=0 / bluray_compat=0 / constrained_intra=0 / bframes=3 / b_pyramid=0 / b_adapt=1 / b_bias=0 / direct=3 / weightb=1 / open_gop=0 / weightp=2 / keyint=230 / keyint_min=23 / scenecut=40 / intra_refresh=0 / rc_lookahead=40 / rc=abr / mbtree=1 / bitrate=1900 / ratetol=1.0 / qcomp=0.60 / qpmin=10 / qpmax=69 / qpstep=4 / vbv_maxrate=24000 / vbv_bufsize=24000 / nal_hrd=none / ip_ratio=1.40 / aq=1:1.00
Language : Italian
Default : Yes
Forced : No
DURATION : 01:24:17.970000000
NUMBER_OF_FRAMES : 121270
NUMBER_OF_BYTES : 6208930585
_STATISTICS_WRITING_APP : mkvmerge v9.7.1 ('Pandemonium') 64bit
_STATISTICS_WRITING_DATE_UTC : 2018-09-23 13:52:36
_STATISTICS_TAGS : BPS DURATION NUMBER_OF_FRAMES NUMBER_OF_BYTES

Audio #1
ID : 2
Format : AC-3
Format/Info : Audio Coding 3
Mode extension : CM (complete main)
Codec ID : A_AC3
Duration : 1h 24mn
Bit rate mode : Constant
Bit rate : 384 Kbps
Channel(s) : 6 channels
Channel positions : Front: L C R, Side: L R, LFE
Sampling rate : 48.0 KHz
Bit depth : 16 bits
Compression mode : Lossy
Delay relative to video : 1mn 5s
Stream size : 232 MiB (14%)
Language : Italian
Default : No
Forced : No
DURATION : 01:24:18.496000000
NUMBER_OF_FRAMES : 158078
NUMBER_OF_BYTES : 404679680
_STATISTICS_WRITING_APP : mkvmerge v9.7.1 ('Pandemonium') 64bit
_STATISTICS_WRITING_DATE_UTC : 2018-09-23 13:52:36
_STATISTICS_TAGS : BPS DURATION NUMBER_OF_FRAMES NUMBER_OF_BYTES

Audio #2
ID : 3
Format : AC-3
Format/Info : Audio Coding 3
Mode extension : CM (complete main)
Codec ID : A_AC3
Duration : 1h 24mn
Bit rate mode : Constant
Bit rate : 384 Kbps
Channel(s) : 6 channels
Channel positions : Front: L C R, Side: L R, LFE
Sampling rate : 48.0 KHz
Bit depth : 16 bits
Compression mode : Lossy
Delay relative to video : 1mn 5s
Stream size : 232 MiB (14%)
Language : English
Default : No
Forced : No
DURATION : 01:24:18.518000000
NUMBER_OF_FRAMES : 474236
NUMBER_OF_BYTES : 954162900
_STATISTICS_WRITING_APP : mkvmerge v9.7.1 ('Pandemonium') 64bit
_STATISTICS_WRITING_DATE_UTC : 2018-09-23 13:52:36
_STATISTICS_TAGS : BPS DURATION NUMBER_OF_FRAMES NUMBER_OF_BYTES

Menu
00:00:00.000 : :(01)00:00:00:000
00:00:29.612 : :(02)00:00:29:612
00:06:31.557 : :(03)00:06:31:557
00:12:33.085 : :(04)00:12:33:085
00:23:55.851 : :(05)00:23:55:851
00:31:32.891 : :(06)00:31:32:891
00:36:09.125 : :(07)00:36:09:125
00:41:37.953 : :(08)00:41:37:953
00:49:27.130 : :(09)00:49:27:130
00:56:38.103 : :(10)00:56:38:103
01:03:29.514 : :(11)01:03:29:514
01:13:37.079 : :(12)01:13:37:079
01:21:07.988 : :(13)01:21:07:988




Files:

Le meraviglie del mare - Wonders of the Sea (2017).720p.h264.ita.eng.sub.ita-MIRCrew
  • by MIRCrew.txt (0.1 KB)
  • Le meraviglie del mare - Wonders of the Sea (2017).720p.h264.ita.eng.sub.ita-MIRCrew.ita.srt (55.0 KB)
  • Le meraviglie del mare - Wonders of the Sea (2017).720p.h264.ita.eng.sub.ita-MIRCrew.mkv (1.6 GB)

There are currently no comments. Feel free to leave one :)

Code:

  • udp://tracker.coppersurfer.tk:6969/announce
  • udp://tracker.torrent.eu.org:451/announce
  • udp://tracker.pirateparty.gr:6969/announce
  • udp://tracker.opentrackr.org:1337/announce
  • udp://tracker.leechers-paradise.org:6969/announce
  • udp://tracker.eddie4.nl:6969/announce
  • udp://shadowshq.yi.org:6969/announce
  • udp://shadowshq.eddie4.nl:6969/announce
  • udp://inferno.demonoid.pw:3391/announce
  • udp://eddie4.nl:6969/announce
  • udp://9.rarbg.to:2730/announce
  • udp://9.rarbg.com:2710/announce
  • udp://9.rarbg.me:2780/announce
  • udp://62.138.0.158:6969/announce
  • udp://151.80.120.114:2710/announce
/08/e7/ff/08e7ffd6a1ad8052c7c702273b643766.js'>