S.W.A.T. (SWAT) S02E04 Saving Face 1080p 5.1 - 2.0 x264 Phun Psyz

  • Category TV
  • Type HD
  • Language English
  • Total size 765.9 MB
  • Uploaded By PhunPsyz
  • Downloads 2556
  • Last checked 3 weeks ago
  • Date uploaded 3 weeks ago
  • Seeders 42
  • Leechers 11

Infohash : F9E1BF11919ECA29A19F619B5019C395D5AEA6EA

www.imdb.com/title/tt8884450/?ref_=ttep_ep4

Hondo suspects an ulterior motive when Eric Wells (Michael Trucco), a U.S. marshal who is the estranged husband of his romantic interest, Deputy District Attorney Nia Wells (Nikiva Dionne), requests the S.W.A.T. team's help with apprehending a fugitive who is robbing drug cargo shipments. Also, Jessica is forced to implement departmental budget cuts, and Street makes a heartbreaking discovery about his mother, Karen (Sherilyn Fenn).

Source: Amzn







Format : MPEG-4
Format profile : Base Media / Version 2
Codec ID : mp42 (isom/iso2/avc1/mp41)
File size : 766 MiB
Duration : 43 min 3 s
Overall bit rate mode : Variable
Overall bit rate : 2 487 kb/s

Video
ID : 1
Format : AVC
Format/Info : Advanced Video Codec
Format profile : [email protected]
Format settings : CABAC / 1 Ref Frames
Format settings, CABAC : Yes
Format settings, ReFrames : 1 frame
Codec ID : avc1
Codec ID/Info : Advanced Video Coding
Duration : 43 min 3 s
Bit rate : 2 002 kb/s
Width : 1 920 pixels
Height : 1 080 pixels
Display aspect ratio : 16:9
Frame rate mode : Constant
Frame rate : 24.000 FPS
Color space : YUV
Chroma subsampling : 4:2:0
Bit depth : 8 bits
Scan type : Progressive
Bits/(Pixel*Frame) : 0.040
Stream size : 617 MiB (80%)
Writing library : x264 core 155 r2901 7d0ff22

Audio #1
ID : 2
Format : AC-3
Format/Info : Audio Coding 3
Commercial name : Dolby Digital
Codec ID : ac-3
Duration : 43 min 3 s
Bit rate mode : Constant
Bit rate : 320 kb/s
Channel(s) : 6 channels
Channel layout : L R C LFE Ls Rs
Sampling rate : 48.0 kHz
Frame rate : 31.250 FPS (1536 SPF)
Bit depth : 16 bits
Compression mode : Lossy
Stream size : 98.5 MiB (13%)
Title : Surround / Surround
Language : English

Audio #2
ID : 3
Format : AAC LC
Format/Info : Advanced Audio Codec Low Complexity
Codec ID : mp4a-40-2
Duration : 43 min 3 s
Bit rate mode : Variable
Bit rate : 159 kb/s
Channel(s) : 2 channels
Channel layout : L R
Sampling rate : 48.0 kHz
Frame rate : 46.875 FPS (1024 SPF)
Compression mode : Lossy
Stream size : 49.1 MiB (6%)
Title : Stereo / Stereo
Language : English

Text
Language : English
Default : Yes
Forced : No

Files:

  • S.W.A.T. S02E04 Saving Face 1080p 5.1 - 2.0 x264 Phun Psyz.mp4 (765.9 MB)

There are currently no comments. Feel free to leave one :)

Code:

  • udp://tracker.opentrackr.org:1337/announce
  • udp://public.popcorn-tracker.org:6969/announce
  • udp://tracker.leechers-paradise.org:6969/announce
  • udp://tracker.pirateparty.gr:6969/announce
  • udp://tracker.internetwarriors.net:1337/announce
  • udp://inferno.demonoid.pw:3391/announce
  • http://mgtracker.org:6969/announce
  • udp://tracker.coppersurfer.tk:6969/announce
  • udp://tracker.torrent.eu.org:451/announce
  • udp://tracker.tiny-vps.com:6969/announce
/08/e7/ff/08e7ffd6a1ad8052c7c702273b643766.js'>