18+ Malicious 2018 UNCENSORED Movies HDRip x264 AAC with Sample ☻...

  • Category Movies
  • Type HD
  • Language English
  • Total size 705.6 MB
  • Uploaded By nehalpuja
  • Downloads 375
  • Last checked 24 minutes ago
  • Date uploaded 2 days ago
  • Seeders 15
  • Leechers 2

Infohash : 502B9EB015F587567118C720734D6934A64C3021

18+ Malicious 2018 UNCENSORED Movies HDRip x264 AAC with Sample ☻rDX☻
===============================================================================================

SCREEN SHOTS:



or

https://iphonehosting.eu/2018/10/hotel/1.html

File size : 695 MiB
Duration : 1 h 30 min
Overall bit rate mode : Constant
Overall bit rate : 1 070 kb/s
Movie name : 18+ Malicious 2018 UNCENSORED Movies HDRip x264 AAC ☻rDX☻

Video
ID : 2
Format : AVC
Format/Info : Advanced Video Codec
Format profile : [email protected]
Format settings, CABAC : Yes
Format settings, ReFrames : 2 frames
Format settings, GOP : M=1, N=12
Codec ID : V_MPEG4/ISO/AVC
Duration : 1 h 30 min
Bit rate mode : Constant
Bit rate : 1 007 kb/s
Width : 720 pixels
Height : 304 pixels
Display aspect ratio : 2.35:1
Frame rate mode : Constant
Frame rate : 23.976 FPS
Color space : YUV
Chroma subsampling : 4:2:0
Bit depth : 8 bits
Scan type : Progressive
Bits/(Pixel*Frame) : 0.192
Stream size : 640 MiB (92%)
Title : ☻rDX☻
Default : Yes
Forced : No

Audio
ID : 1
Format : MPEG Audio
Format version : Version 1
Format profile : Layer 3
Mode : Joint stereo
Mode extension : MS Stereo
Codec ID : A_MPEG/L3
Codec ID/Hint : MP3
Duration : 1 h 30 min
Bit rate mode : Constant
Bit rate : 64.0 kb/s
Channel(s) : 2 channels
Sampling rate : 44.1 kHz
Compression mode : Lossy
Stream size : 41.6 MiB (6%)
Title : ☻rDX☻
Default : Yes
Forced : No

https://www.imdb.com/title/tt6197494

Files:

18+ Malicious 2018 UNCENSORED Movies HDRip x264 AAC with Sample ☻rDX☻
  • Sample ~ 18+ Malicious 2018 UNCENSORED Movies HDRip x264 AAC ☻rDX☻.mkv (10.2 MB)
  • 18+ Malicious 2018 UNCENSORED Movies HDRip x264 AAC ☻rDX☻.mkv (695.4 MB)

There are currently no comments. Feel free to leave one :)

Code:

  • udp://tracker.coppersurfer.tk:6969/announce
  • udp://tracker.leechers-paradise.org:6969/announce
  • udp://tracker.pirateparty.gr:6969/announce
  • udp://eddie4.nl:6969/announce
  • udp://tracker.zer0day.to:1337/announce
  • udp://9.rarbg.me:2710/announce
  • udp://9.rarbg.to:2710/announce
  • udp://public.popcorn-tracker.org:6969/announce
  • udp://p4p.arenabg.ch:1337/announce
  • udp://tracker.vanitycore.co:6969/announce
  • udp://ipv4.tracker.harry.lu:80/announce
  • udp://tracker.opentrackr.org:1337/announce
  • udp://p4p.arenabg.com:1337/announce
  • udp://shadowshq.yi.org:6969/announce
/08/e7/ff/08e7ffd6a1ad8052c7c702273b643766.js'>