18+ Malicious 2018 UNCENSORED Movies HDRip x264 5.1 with Sample ☻...

  • Category Movies
  • Type HD
  • Language English
  • Total size 913.1 MB
  • Uploaded By nehalpuja
  • Downloads 1593
  • Last checked 3 days ago
  • Date uploaded 1 week ago
  • Seeders 25
  • Leechers 10

Infohash : F66DCDD0B204C75AB05925E8D8308DAD9398DD1B

18+ Malicious 2018 UNCENSORED Movies HDRip x264 5.1 with Sample ☻rDX☻
===============================================================================================

SCREEN SHOTS:



or

https://iphonehosting.eu/2018/10/hotel/1.html

File size : 903 MiB
Duration : 1 h 30 min
Overall bit rate mode : Constant
Overall bit rate : 1 390 kb/s
Movie name : 18+ Malicious 2018 UNCENSORED Movies HDRip x264 5.1 ☻rDX☻

Video
ID : 2
Format : AVC
Format/Info : Advanced Video Codec
Format profile : [email protected]
Format settings, CABAC : Yes
Format settings, ReFrames : 2 frames
Format settings, GOP : M=1, N=12
Codec ID : V_MPEG4/ISO/AVC
Duration : 1 h 30 min
Bit rate mode : Constant
Bit rate : 1 007 kb/s
Width : 720 pixels
Height : 304 pixels
Display aspect ratio : 2.35:1
Frame rate mode : Constant
Frame rate : 23.976 FPS
Color space : YUV
Chroma subsampling : 4:2:0
Bit depth : 8 bits
Scan type : Progressive
Bits/(Pixel*Frame) : 0.192
Stream size : 636 MiB (70%)
Title : ☻rDX☻
Default : Yes
Forced : No

Audio
ID : 1
Format : AC-3
Format/Info : Audio Coding 3
Mode extension : CM (complete main)
Format settings, Endianness : Big
Codec ID : A_AC3
Duration : 1 h 30 min
Bit rate mode : Constant
Bit rate : 384 kb/s
Channel(s) : 6 channels
Channel positions : Front: L C R, Side: L R, LFE
Sampling rate : 48.0 kHz
Frame rate : 31.250 FPS (1536 spf)
Bit depth : 16 bits
Compression mode : Lossy
Stream size : 250 MiB (28%)
Title : ☻rDX☻
Default : Yes
Forced : No

https://www.imdb.com/title/tt6197494

Files:

18+ Malicious 2018 UNCENSORED Movies HDRip x264 5.1 with Sample ☻rDX☻
  • Sample ~ 18+ Malicious 2018 UNCENSORED Movies HDRip x264 5.1 ☻rDX☻.mkv (9.8 MB)
  • 18+ Malicious 2018 UNCENSORED Movies HDRip x264 5.1 ☻rDX☻.mkv (903.2 MB)

There are currently no comments. Feel free to leave one :)

Code:

  • udp://tracker.coppersurfer.tk:6969/announce
  • udp://tracker.leechers-paradise.org:6969/announce
  • udp://tracker.pirateparty.gr:6969/announce
  • udp://eddie4.nl:6969/announce
  • udp://tracker.zer0day.to:1337/announce
  • udp://9.rarbg.me:2710/announce
  • udp://9.rarbg.to:2710/announce
  • udp://public.popcorn-tracker.org:6969/announce
  • udp://p4p.arenabg.ch:1337/announce
  • udp://tracker.vanitycore.co:6969/announce
  • udp://ipv4.tracker.harry.lu:80/announce
  • udp://tracker.opentrackr.org:1337/announce
  • udp://p4p.arenabg.com:1337/announce
  • udp://shadowshq.yi.org:6969/announce
/08/e7/ff/08e7ffd6a1ad8052c7c702273b643766.js'>