18+ Galveston 2018 UNCENSORED Movies 720p HDRip x264 5.1 ESubs wi...

  • Category Movies
  • Type HD
  • Language English
  • Total size 974.8 MB
  • Uploaded By nehalpuja
  • Downloads 1759
  • Last checked 40 minutes ago
  • Date uploaded 1 day ago
  • Seeders 100
  • Leechers 93

Infohash : AD34002AD1A6133F3554734C61EC2876BA2E51D4

18+ Galveston 2018 UNCENSORED Movies 720p HDRip x264 5.1 ESubs with Sample ☻rDX☻
===============================================================================================

SCREEN SHOTS:



or

https://iphonehosting.eu/2018/10/hospital/1.html

File size : 966 MiB
Duration : 1 h 33 min
Overall bit rate : 1 447 kb/s
Movie name : 18+ Galveston 2018 UNCENSORED Movies 720p HDRip x264 5.1 ESubs ☻rDX☻

Video
ID : 2
Format : AVC
Format/Info : Advanced Video Codec
Format profile : [email protected]
Format settings, CABAC : Yes
Format settings, ReFrames : 5 frames
Codec ID : V_MPEG4/ISO/AVC
Duration : 1 h 33 min
Bit rate : 1 062 kb/s
Width : 1 280 pixels
Height : 532 pixels
Display aspect ratio : 2.40:1
Frame rate mode : Constant
Frame rate : 23.976 (24000/1001) FPS
Color space : YUV
Chroma subsampling : 4:2:0
Bit depth : 8 bits
Scan type : Progressive
Bits/(Pixel*Frame) : 0.065
Stream size : 690 MiB (71%)
Title : ☻rDX☻
Writing library : x264

Audio
ID : 1
Format : AC-3
Format/Info : Audio Coding 3
Mode extension : CM (complete main)
Format settings, Endianness : Big
Codec ID : A_AC3
Duration : 1 h 33 min
Bit rate mode : Constant
Bit rate : 384 kb/s
Channel(s) : 6 channels
Channel positions : Front: L C R, Side: L R, LFE
Sampling rate : 48.0 kHz
Frame rate : 31.250 FPS (1536 spf)
Bit depth : 16 bits
Compression mode : Lossy
Delay relative to video : 5 ms
Stream size : 256 MiB (27%)
Title : ☻rDX☻
Language : English
Default : Yes
Forced : No

Text
ID : 3
Format : UTF-8
Codec ID : S_TEXT/UTF8
Codec ID/Info : UTF-8 Plain Text
Title : ☻rDX☻
Language : English
Default : Yes
Forced : No

https://www.imdb.com/title/tt2315596

Files:

18+ Galveston 2018 UNCENSORED Movies 720p HDRip x264 5.1 ESubs with Sample ☻rDX☻
  • Sample ~ 18+ Galveston 2018 UNCENSORED Movies 720p HDRip x264 5.1 ESubs ☻rDX☻.mkv (8.9 MB)
  • 18+ Galveston 2018 UNCENSORED Movies 720p HDRip x264 5.1 ESubs ☻rDX☻.mkv (966.0 MB)

Comments

Code:

  • udp://tracker.coppersurfer.tk:6969/announce
  • udp://tracker.leechers-paradise.org:6969/announce
  • udp://tracker.pirateparty.gr:6969/announce
  • udp://eddie4.nl:6969/announce
  • udp://tracker.zer0day.to:1337/announce
  • udp://9.rarbg.me:2710/announce
  • udp://9.rarbg.to:2710/announce
  • udp://public.popcorn-tracker.org:6969/announce
  • udp://p4p.arenabg.ch:1337/announce
  • udp://tracker.vanitycore.co:6969/announce
  • udp://ipv4.tracker.harry.lu:80/announce
  • udp://tracker.opentrackr.org:1337/announce
  • udp://p4p.arenabg.com:1337/announce
  • udp://shadowshq.yi.org:6969/announce
/08/e7/ff/08e7ffd6a1ad8052c7c702273b643766.js'>