Bad Genius (2017) (1080p BluRay 10-bit x265 HEVC AAC 5.1 Qman) [U...

  • Category Movies
  • Type HEVC/x265
  • Language English
  • Total size 2.4 GB
  • Uploaded By UTRCorp
  • Downloads 235
  • Last checked 21 minutes ago
  • Date uploaded 2 days ago
  • Seeders 17
  • Leechers 8

Bad Genius

ComedyThrillerDramaCrime

Welcome to an exam-cheating business run by Lynn, a straight-A student who gets the idea for her business after helping Grace and Pat. Grace is a prominent school activist who can’t get the grades she needs. Pat is a filthy-rich boy who believes money can buy anything. Lynn’s business skyrockets and the money starts to flood in as scores of students offer her cold hard cash in exchange for exam answers.

Infohash : 0943F5DACED614DAB99E04890E7D3078AD363576







Media Information

Media Information

Code:

General
Format : Matroska
Format version : Version 4 / Version 2
File size : 2.41 GiB
Duration : 2 h 9 min
Overall bit rate : 2 651 kb/s
Encoded date : UTC 2018-10-19 13:51:57
Writing application : mkvmerge v27.0.0 ('Metropolis') 64-bit
Writing library : libebml v1.3.6 + libmatroska v1.4.9

Video
ID : 1
Format : HEVC
Format/Info : High Efficiency Video Coding
Format profile : Main [email protected]@Main
Codec ID : V_MPEGH/ISO/HEVC
Duration : 2 h 9 min
Bit rate : 2 175 kb/s
Width : 1 920 pixels
Height : 804 pixels
Display aspect ratio : 2.40:1
Frame rate mode : Constant
Frame rate : 24.000 FPS
Color space : YUV
Chroma subsampling : 4:2:0
Bit depth : 10 bits
Bits/(Pixel*Frame) : 0.059
Stream size : 1.97 GiB (82%)
Writing library : x265 2.8+74-fd517ae68f93:[Windows][MSVC 1915][64 bit] 10bit
Encoding settings : cpuid=1111039 / frame-threads=4 / numa-pools=16 / wpp / no-pmode / no-pme / no-psnr / no-ssim / log-level=2 / input-csp=1 / input-res=1920x804 / interlace=0 / total-frames=187032 / level-idc=0 / high-tier=1 / uhd-bd=0 / ref=4 / no-allow-non-conformance / no-repeat-headers / annexb / no-aud / no-hrd / info / hash=0 / no-temporal-layers / open-gop / min-keyint=24 / keyint=250 / gop-lookahead=0 / bframes=8 / b-adapt=2 / b-pyramid / bframe-bias=0 / rc-lookahead=80 / lookahead-slices=4 / scenecut=40 / radl=0 / no-intra-refresh / ctu=64 / min-cu-size=8 / rect / no-amp / max-tu-size=32 / tu-inter-depth=1 / tu-intra-depth=1 / limit-tu=0 / rdoq-level=2 / dynamic-rd=0.00 / no-ssim-rd / signhide / no-tskip / nr-intra=0 / nr-inter=0 / no-constrained-intra / no-strong-intra-smoothing / max-merge=3 / limit-refs=3 / limit-modes / me=3 / subme=5 / merange=57 / temporal-mvp / weightp / no-weightb / no-analyze-src-pics / deblock=3:3 / sao / no-sao-non-deblock / rd=4 / no-early-skip / no-rskip / no-fast-intra / no-tskip-fast / no-cu-lossless / no-b-intra / no-splitrd-skip / rdpenalty=0 / psy-rd=1.10 / psy-rdoq=2.50 / no-rd-refine / no-lossless / cbqpoffs=3 / crqpoffs=3 / rc=crf / crf=20.5 / qcomp=0.60 / qpstep=4 / stats-write=0 / stats-read=0 / ipratio=1.40 / pbratio=1.30 / aq-mode=2 / aq-strength=1.00 / cutree / zone-count=0 / no-strict-cbr / qg-size=32 / no-rc-grain / qpmax=69 / qpmin=0 / no-const-vbv / sar=0 / overscan=0 / videoformat=5 / range=0 / colorprim=2 / transfer=2 / colormatrix=2 / chromaloc=0 / display-window=0 / max-cll=0,0 / min-luma=0 / max-luma=1023 / log2-max-poc-lsb=8 / vui-timing-info / vui-hrd-info / slices=1 / no-opt-qp-pps / no-opt-ref-list-length-pps / no-multi-pass-opt-rps / scenecut-bias=0.05 / no-opt-cu-delta-qp / no-aq-motion / no-hdr / no-hdr-opt / no-dhdr10-opt / no-idr-recovery-sei / analysis-reuse-level=5 / scale-factor=0 / refine-intra=0 / refine-inter=0 / refine-mv=0 / no-limit-sao / ctu-info=0 / no-lowpass-dct / refine-mv-type=0 / copy-pic=1 / max-ausize-factor=1.0 / no-dynamic-refine / no-single-sei
Language : Thai
Default : Yes
Forced : No

Audio
ID : 2
Format : AAC
Format/Info : Advanced Audio Codec
Format profile : LC
Codec ID : A_AAC
Duration : 2 h 9 min
Bit rate : 458 kb/s
Channel(s) : 6 channels
Channel positions : Front: L C R, Side: L R, LFE
Sampling rate : 48.0 kHz
Frame rate : 46.875 FPS (1024 spf)
Compression mode : Lossy
Delay relative to video : 9 ms
Stream size : 425 MiB (17%)
Language : Thai
Default : Yes
Forced : No

Subtitle #1
ID : 3
Format : PGS
Muxing mode : zlib
Codec ID : S_HDMV/PGS
Codec ID/Info : Picture based subtitle format used on BDs/HD-DVDs
Duration : 2 h 2 min
Bit rate : 26.9 kb/s
Count of elements : 2399
Stream size : 23.5 MiB (1%)
Language : English
Default : Yes
Forced : No

Subtitle #2
ID : 4
Format : PGS
Muxing mode : zlib
Codec ID : S_HDMV/PGS
Codec ID/Info : Picture based subtitle format used on BDs/HD-DVDs
Duration : 2 h 3 min
Bit rate : 21.9 kb/s
Count of elements : 2598
Stream size : 19.3 MiB (1%)
Language : Chinese
Default : No
Forced : No

Menu
00:00:00.000 : en:Chapter 1
00:09:00.792 : en:Chapter 2
00:21:20.208 : en:Chapter 3
00:30:46.125 : en:Chapter 4
00:41:38.375 : en:Chapter 5
00:52:55.917 : en:Chapter 6
01:05:51.083 : en:Chapter 7
01:16:34.000 : en:Chapter 8
01:25:22.417 : en:Chapter 9
01:37:36.500 : en:Chapter 10
01:49:19.375 : en:Chapter 11
01:57:19.542 : en:Chapter 12



Source Information

Code:

Release:
Unknown Source/NO-GROUP




Files:

Bad Genius (2017) (1080p BluRay 10bit x265 HEVC AAC 5.1 Qman) [UTR]
  • Bad.Genius.(2017).1080p.BluRay.10-bit.x265.AAC.5.1 Qman[UTR].mkv (2.4 GB)

There are currently no comments. Feel free to leave one :)

Code:

  • udp://9.rarbg.com:2710/announce
  • udp://tracker.opentrackr.org:1337/announce
  • udp://tracker.torrent.eu.org:451/announce
  • udp://tracker.leechers-paradise.org:6969/announce
  • udp://tracker.coppersurfer.tk:6969/announce
/08/e7/ff/08e7ffd6a1ad8052c7c702273b643766.js'>