The Middle (2009) Season 09 S09 (1080p AMZN WEB-DL x265 HEVC 10b...

  • Category TV
  • Type HEVC/x265
  • Language English
  • Total size 15.3 GB
  • Uploaded By UTRCorp
  • Downloads 59
  • Last checked 3 weeks ago
  • Date uploaded 4 weeks ago
  • Seeders 2
  • Leechers 7

Infohash : 185DD0CEDA1ECE49A22860E0F073B9284460B839














[CENTER]

Media Information

Media Information

Code:

General
Format : Matroska
Format version : Version 4 / Version 2
File size : 601 MiB
Duration : 21 min 34 s
Overall bit rate : 3 896 kb/s
Encoded date : UTC 2017-10-27 16:45:26
Writing application : mkvmerge v17.0.0 ('Be Ur Friend') 64-bit
Writing library : libebml v1.3.5 + libmatroska v1.4.8

Video
ID : 1
Format : HEVC
Format/Info : High Efficiency Video Coding
Format profile : Main [email protected]@Main
Codec ID : V_MPEGH/ISO/HEVC
Duration : 21 min 34 s
Bit rate : 3 702 kb/s
Width : 1 920 pixels
Height : 1 080 pixels
Display aspect ratio : 16:9
Frame rate mode : Constant
Frame rate : 23.976 (24000/1001) FPS
Color space : YUV
Chroma subsampling : 4:2:0
Bit depth : 10 bits
Bits/(Pixel*Frame) : 0.074
Stream size : 571 MiB (95%)
Writing library : x265 2.5+27-0e168bdeb48b:[Windows][MSVC 1911][64 bit] 10bit
Encoding settings : cpuid=1173503 / frame-threads=2 / numa-pools=4 / wpp / no-pmode / no-pme / no-psnr / no-ssim / log-level=2 / input-csp=1 / input-res=1920x1080 / interlace=0 / total-frames=31027 / level-idc=0 / high-tier=1 / uhd-bd=0 / ref=3 / no-allow-non-conformance / no-repeat-headers / annexb / no-aud / no-hrd / info / hash=0 / no-temporal-layers / open-gop / min-keyint=23 / keyint=250 / bframes=4 / b-adapt=2 / b-pyramid / bframe-bias=0 / rc-lookahead=20 / lookahead-slices=6 / scenecut=40 / no-intra-refresh / ctu=64 / min-cu-size=8 / no-rect / no-amp / max-tu-size=32 / tu-inter-depth=1 / tu-intra-depth=1 / limit-tu=0 / rdoq-level=1 / dynamic-rd=0.00 / no-ssim-rd / signhide / no-tskip / nr-intra=0 / nr-inter=0 / no-constrained-intra / no-strong-intra-smoothing / max-merge=2 / limit-refs=3 / no-limit-modes / me=3 / subme=2 / merange=57 / temporal-mvp / weightp / no-weightb / no-analyze-src-pics / deblock=-1:-1 / sao / no-sao-non-deblock / rd=3 / no-early-skip / rskip / no-fast-intra / no-tskip-fast / no-cu-lossless / no-b-intra / no-splitrd-skip / rdpenalty=0 / psy-rd=0.35 / psy-rdoq=0.00 / no-rd-refine / analysis-reuse-mode=0 / no-lossless / cbqpoffs=0 / crqpoffs=0 / rc=crf / crf=24.0 / qcomp=0.60 / qpstep=4 / stats-write=0 / stats-read=0 / ipratio=1.40 / pbratio=1.30 / aq-mode=3 / aq-strength=1.00 / cutree / zone-count=0 / no-strict-cbr / qg-size=32 / no-rc-grain / qpmax=69 / qpmin=0 / no-const-vbv / sar=0 / overscan=0 / videoformat=5 / range=0 / colorprim=2 / transfer=2 / colormatrix=2 / chromaloc=0 / display-window=0 / max-cll=0,0 / min-luma=0 / max-luma=1023 / log2-max-poc-lsb=8 / vui-timing-info / vui-hrd-info / slices=1 / opt-qp-pps / opt-ref-list-length-pps / no-multi-pass-opt-rps / scenecut-bias=0.05 / no-opt-cu-delta-qp / no-aq-motion / no-hdr / no-hdr-opt / no-dhdr10-opt / analysis-reuse-level=5 / scale-factor=0 / refine-intra=0 / refine-inter=0 / refine-mv=0 / no-limit-sao / ctu-info=0
Language : English
Default : Yes
Forced : No

Audio
ID : 2
Format : AAC
Format/Info : Advanced Audio Codec
Format profile : HE-AAC / LC
Codec ID : A_AAC
Duration : 21 min 33 s
Bit rate : 192 kb/s
Channel(s) : 6 channels
Channel positions : Front: L C R, Side: L R, LFE
Sampling rate : 48.0 kHz / 24.0 kHz
Frame rate : 23.438 FPS (1024 spf)
Compression mode : Lossy
Delay relative to video : 34 ms
Stream size : 29.6 MiB (5%)
Language : English
Default : Yes
Forced : No

Subtitle
ID : 3
Format : UTF-8
Codec ID : S_TEXT/UTF8
Codec ID/Info : UTF-8 Plain Text
Duration : 21 min 24 s
Bit rate : 116 b/s
Count of elements : 558
Stream size : 18.3 KiB (0%)
Language : English
Default : Yes
Forced : No



Source Information

Code:

Release:
Unknown Source/NO-GROUP




We have no issue with individuals posting or re-uploading our torrents on a platform we aren't on. However, if this is something you'd like to do, please do so in a 'as-is' format. We ask that you do not create a new torrent, include all descriptions you see above including the UTR logo, tags, notes and screenshots. If you'd like to become a permanent poster on a website we don't post to, feel free to get in contact with a UniTeam member.

Files:

The Middle (2009) Season 09 S09 (1080p AMZN WED-DL x265 HEVC 10bit AAC 5.1 Qman) [UTR] The Middle S09E01 (1080p AMZN WEB-DL x265 HEVC 10bit AAC 5.1 Qman) [UTR]
  • The.Middle.S09E01.1080p.AMZN.WEB-DL.x265.10bit.AAC.5.1-Qman[UTR].mkv (704.7 MB)
The Middle S09E02 (1080p AMZN WEB-DL x265 HEVC 10bit AAC 5.1 Qman) [UTR]
  • The.Middle.S09E02.1080p.AMZN.WEB-DL.x265.10bit.AAC.5.1-Qman[UTR].mkv (769.3 MB)
The Middle S09E03 (1080p AMZN WEB-DL x265 HEVC 10bit AAC 5.1 Qman) [UTR]
  • The.Middle.S09E03.1080p.AMZN.WEB-DL.x265.10bit.AAC.5.1-Qman[UTR].mkv (734.7 MB)
The Middle S09E04 (1080p AMZN WEB-DL x265 HEVC 10bit AAC 5.1 Qman) [UTR]
  • The.Middle.S09E04.1080p.AMZN.WEB-DL.x265.10bit.AAC.5.1-Qman[UTR].mkv (601.1 MB)
The Middle S09E05 (1080p AMZN WEB-DL x265 HEVC 10bit AAC 5.1 Qman) [UTR]
  • The.Middle.S09E05.1080p.AMZN.WEB-DL.x265.10bit.AAC.5.1-Qman[UTR].mkv (712.2 MB)
The Middle S09E06 (1080p AMZN WEB-DL x265 HEVC 10bit AAC 5.1 Qman) [UTR]
  • The.Middle.S09E06.1080p.AMZN.WEB-DL.x265.10bit.AAC.5.1-Qman[UTR].mkv (718.3 MB)
The Middle S09E07 (1080p AMZN WEB-DL x265 HEVC 10bit AAC 5.1 Qman) [UTR]
  • The.Middle.S09E07.1080p.AMZN.WEB-DL.x265.10bit.AAC.5.1-Qman[UTR].mkv (737.1 MB)
The Middle S09E08 (1080p AMZN WEB-DL x265 HEVC 10bit AAC 5.1 Qman) [UTR]
  • The.Middle.S09E08.1080p.AMZN.WEB-DL.x265.10bit.AAC.5.1-Qman[UTR].mkv (592.0 MB)
The Middle S09E09 (1080p AMZN WEB-DL x265 HEVC 10bit AAC 5.1 Qman) [UTR]
  • The.Middle.S09E09.1080p.AMZN.WEB-DL.x265.10bit.AAC.5.1-Qman[UTR].mkv (748.2 MB)
The Middle S09E10 (1080p AMZN WEB-DL x265 HEVC 10bit AAC 5.1 Qman) [UTR]
  • The.Middle.S09E10.1080p.AMZN.WEB-DL.x265.10bit.AAC.5.1-Qman[UTR].mkv (585.4 MB)
The Middle S09E11 (1080p AMZN WEB-DL x265 HEVC 10bit AAC 5.1 Qman) [UTR]
  • The.Middle.S09E11.1080p.AMZN.WEB-DL.x265.10bit.AAC.5.1-Qman[UTR].mkv (612.8 MB)
The Middle S09E12 (1080p AMZN WEB-DL x265 HEVC 10bit AAC 5.1 Qman) [UTR]
  • The.Middle.S09E12.1080p.AMZN.WEB-DL.x265.10bit.AAC.5.1-Qman[UTR].mkv (537.2 MB)
The Middle S09E13 (1080p AMZN WEB-DL x265 HEVC 10bit AAC 5.1 Qman) [UTR]
  • The.Middle.S09E13.1080p.AMZN.WEB-DL.x265.10bit.AAC.5.1-Qman[UTR].mkv (626.1 MB)
The Middle S09E14 (1080p AMZN WEB-DL x265 HEVC 10bit AAC 5.1 Qman) [UTR]
  • The.Middle.S09E14.1080p.AMZN.WEB-DL.x265.10bit.AAC.5.1-Qman[UTR].mkv (696.0 MB)
The Middle S09E15 (1080p AMZN WEB-DL x265 HEVC 10bit AAC 5.1 Qman) [UTR]
  • The.Middle.S09E15.1080p.AMZN.WEB-DL.x265.10bit.AAC.5.1-Qman[UTR].mkv (626.8 MB)
The Middle S09E16 (1080p AMZN WEB-DL x265 HEVC 10bit AAC 5.1 Qman) [UTR]
  • The.Middle.S09E16.1080p.AMZN.WEB-DL.x265.10bit.AAC.5.1-Qman[UTR].mkv (659.2 MB)
The Middle S09E17 (1080p AMZN WEB-DL x265 HEVC 10bit AAC 5.1 Qman) [UTR]
  • The.Middle.S09E17.1080p.AMZN.WEB-DL.x265.10bit.AAC.5.1-Qman[UTR].mkv (700.0 MB)
The Middle S09E18 (1080p AMZN WEB-DL x265 HEVC 10bit AAC 5.1 Qman) [UTR]
  • The.Middle.S09E18.1080p.AMZN.WEB-DL.x265.10bit.AAC.5.1-Qman[UTR].mkv (691.3 MB)
The Middle S09E19 (1080p AMZN WEB-DL x265 HEVC 10bit AAC 5.1 Qman) [UTR]
  • The.Middle.S09E19.1080p.AMZN.WEB-DL.x265.10bit.AAC.5.1-Qman[UTR].mkv (649.7 MB)
The Middle S09E20 (1080p AMZN WEB-DL x265 HEVC 10bit AAC 5.1 Qman) [UTR]
  • The.Middle.S09E20.1080p.AMZN.WEB-DL.x265.10bit.AAC.5.1-Qman[UTR].mkv (519.3 MB)
The Middle S09E21 (1080p AMZN WEB-DL x265 HEVC 10bit AAC 5.1 Qman) [UTR]
  • The.Middle.S09E21.1080p.AMZN.WEB-DL.x265.10bit.AAC.5.1-Qman[UTR].mkv (559.1 MB)
The Middle S09E22 (1080p AMZN WEB-DL x265 HEVC 10bit AAC 5.1 Qman) [UTR]
  • The.Middle.S09E22.1080p.AMZN.WEB-DL.x265.10bit.AAC.5.1-Qman[UTR].mkv (645.8 MB)
The Middle S09E23-E24 (1080p AMZN WEB-DL x265 HEVC 10bit AAC 5.1 Qman) [UTR]
  • The.Middle.S09E23-E24.1080p.AMZN.WEB-DL.x265.10bit.AAC.5.1-Qman[UTR].mkv (1.2 GB)

Comments

Code:

  • udp://9.rarbg.com:2710/announce
  • udp://tracker.opentrackr.org:1337/announce
  • udp://tracker.torrent.eu.org:451/announce
  • udp://tracker.leechers-paradise.org:6969/announce
  • udp://tracker.coppersurfer.tk:6969/announce
/08/e7/ff/08e7ffd6a1ad8052c7c702273b643766.js'>